Бригада с аллергии нет 1991

Аллергии – нет! – Бригада С

«Аллергии – нет!» – альбом группы «Бригада С» 1991 года. Составлен из песен авторства Гарика Сукачева и Александра Олейника. Издавался на магнитофонных кассетах, компакт-дисках и виниловых пластинках.

История создания альбома

Альбом группы «Бригада С» «Аллергии – нет!» был записан в 1991 году. Незадолго до начала работы над составившим альбом материалом в составе коллектива произошли масштабные изменения – один из основателей команды, Сергей Галанин, не принимал участие в записи пластинки, поскольку вместе с другими музыкантами «Бригады» основал проект «Бригадиры», а Сукачев в это время набрал новый состав, с которым и работал над новыми песнями.

Запись альбома проходила на студии SNC records. Звукорежиссёром пластинки стал Олег Сальков. Песни «Аллергия», «Звезда микрорайона», «Дай мне руку» стали хитами.

Варианты издания

Релиз альбома «Аллергии – нет!» «Бригады С» состоялся в 1991 году. Запись была выпущена на виниловых пластинках и компакт-дисках. В дальнейшем альбом официально не переиздавался.

Использованные источники: reproduktor.net

СМОТРИТЕ ЕЩЕ:

  Вызывает ли корниш-рекс аллергию

  Как проверить есть ли аллергия на татуаж

  Аллергия на перловую крупу

Бригада С — Аллергии — нет! (1991)

309 mb
Upload: letitbit.net
Password: without a password

Tracklist:
——————
01. Бригада С — Розовый след на белой дороге [4:31]
02. Бригада С — Шейк (к 70-летию СССР) [3:26]
03. Бригада С — Звезда Микрорайона [4:14]
04. Бригада С — Эксгибиционист [3:55]
05. Бригада С — Аллергия [4:39]
06. Бригада С — I Need A Needle [5:04]
07. Бригада С — ‘Рай’ [3:20]
08. Бригада С — Оглянись! [5:45]
09. Бригада С — Дай мне руку [6:02]
—————————
Total time [00:40:56]

Exact Audio Copy V1.0 beta 3 from 29. August 2011

Отчёт EAC об извлечении, выполненном 13. июля 2012, 23:31

Бригада С / Аллергии — нет!

Дисковод: SlimtypeDVD A DS8A5SH Adapter: 0 ID: 1

Режим чтения : Достоверность
Использование точного потока : Да
Отключение кэша аудио : Да
Использование указателей C2 : Нет

Коррекция смещения при чтении : 6
Способность читать области Lead-in и Lead-out : Нет
Заполнение пропущенных сэмплов тишиной : Да
Удаление блоков с тишиной в начале и конце : Нет
При вычислениях CRC использовались нулевые сэмплы : Да
Интерфейс : Встроенный Win32-интерфейс для Win NT/2000

Выходной формат : Пользовательский кодировщик
Выбранный битрейт : 128 kBit/s
Качество : Высокий
Добавление ID3-тега : Нет
Утилита сжатия : C:Program Files (x86)Monkey’s AudioMonkey’s Audio.exe
Дополнительные параметры : %source% %dest% -c3000

TOC извлечённого CD

Трек | Старт | Длительность | Начальный сектор | Конечный сектор
———————————————————————
1 | 0:00.00 | 4:31.25 | 0 | 20349
2 | 4:31.25 | 3:25.50 | 20350 | 35774
3 | 7:57.00 | 4:14.25 | 35775 | 54849
4 | 12:11.25 | 3:54.50 | 54850 | 72449
5 | 16:06.00 | 4:38.50 | 72450 | 93349
6 | 20:44.50 | 5:04.25 | 93350 | 116174
7 | 25:49.00 | 3:20.00 | 116175 | 131174
8 | 29:09.00 | 5:45.00 | 131175 | 157049
9 | 34:54.00 | 6:02.00 | 157050 | 184199

Характеристики диапазона извлечения и сообщения об ошибках

Имя файла C:UsersAsusDesktopБригада С — Аллергии — нет!.wav

Пиковый уровень 100.0 %
Скорость извлечения 4.1 X
Качество диапазона 100.0 %
CRC теста 1227A61E
CRC копии 1227A61E
Копирование. OK

Ошибок не произошло

Трек 1 отсутствует в базе данных
Трек 2 отсутствует в базе данных
Трек 3 отсутствует в базе данных
Трек 4 отсутствует в базе данных
Трек 5 отсутствует в базе данных
Трек 6 отсутствует в базе данных
Трек 7 отсутствует в базе данных
Трек 8 отсутствует в базе данных
Трек 9 отсутствует в базе данных

Ни одного трека нет в базе AccurateRip

==== Контрольная сумма отчёта 15D0BDA01F69006F80FA7AC6CAB157748AF1C9B3670BDE88232A00ADAB678452 ====

-=== НЕ РЕДАКТИРУЙТЕ ЭТОТ ФАЙЛ! ===-

1 -=- Бригада С — Аллергии — нет!.flac -=- MPEG (95%)

Использованные источники: flacmusic.info

ВАС МОЖЕТ ЗАИНТЕРЕСОВАТЬ:

  Оксид серы аллергия

  Аллергия на лице на гормональную мазь

  Аллергия продукты которые нельзя употреблять

  Аллергия от изофры

  Симптомы аллергия на пиявки

Бригада С Аллергии — нет! (1991) альбом HD

«Брига́да С» — советская и российская рок-группа.

1. Розовый След На Белой Дороге 0:00
2. Шейк (к 70-летию СССР) 04:25
3. Звезда Микрорайона 07:51
4. Эксгибиционист 12:05
5. Аллергия 15:59
6. I Need A Needle 20:41
7. «Рай» 25:44
8. Оглянись! 29:03
9. Дай мне руку 34:49

Lyrics By — А. Григорьев (tracks: 6), А. Олейник (tracks: 2, 5),
И. Сукачев (tracks: 1, 3, 4, 7 to 9)
Music By — И. Сукачев

Bass — Тимур Муртузаев
Drums — Павел Кузин
Guitar — Артем Павленко, Гарик Сукачев
Keyboards, Vocals — Рушан Аюпов
Percussion, Xylophone, Vibraphone — Владимир Голоухов
Pipe, Vocals — Петр Тихонов
Saxophone — Леонид Челябинский, Сергей Мазаев (tracks: 7)
Trombone, Vocals — Владимир Раздвижной (Чекан)

Использованные источники: www.moscatalogue.net

Related Post